Tyag (2017) Bengali Hot Short Film Full HD *HOT*

Tyag (2017) Bengali Hot Short Film Full HD

Direction By Saroj Bhagat
Cinematography By Mrinal Chandra Mondal
Editing By Tulika Mondal
Background Music By Soumyadeep Halder
Leading Starcast By Rajendra Nath Sadhukhan, Ashim Kanti Paul, Goutam Naskar, Swapan Halder, Rittika Sarkar, Pintu Mondal, Sanku Bhattacharya and Aparna Mondal

..::Download Link 720p HD 220MB File::..

Uptocafe Download Link

BDupload Download Link

HDupload Download Link

9xupload Download link

..::Download Link 360p HD 80MB File::..

Uptocafe Download Link

BDupload Download Link

HDupload Download Link

9xupload Download link

Low Sex libido in Mid aged Men Kya Karu Main Ab Full HD *HOT*

18+ Low Sex libido in Mid aged Men Kya Karu Main Ab Full HD

File: files/18+ Low Sex libido in Mid aged Men Kya Karu Main Ab Full HD .mp4
Size: 52386043 bytes (49.96 MiB), duration: 00:14:20, avg.bitrate: 487 kb/s
Audio: aac, 44100 Hz, stereo (eng)
Video: h264, yuv420p, 480×360, 25.00 fps(r) (und)

..::Download Link 360p HD 50MB File::..

Uptocafe Download Link

BDupload Download Link

HDupload Download Link

9xupload Download link

Yeti Obhijaan (2017) Bangali Movie Official Trailer HD

Yeti Obhijaan (2017) Bangali Movie Official Trailer HD

Film : Yeti Obhijaan
Director : Srijit Mukherji
Starring : Prosenjit Chatterjee, Aryann Bhowmik, Jisshu Sengupta
Music : Indraadip Dasgupta
Lyrics : Prasen & Srijit Mukherji
Screenplay & Dialogues : Srijit Mukherji
DOP : Soumik Halder
Associate Director : Soumyabrata Rakshit
Production Designer : Shibaji Pal

Download Link 720p 32 Mb HD

HDuplad BDupload UptoCafe 9Xupload

Dekh Kemon Lage (2017) Bengali Movie HDTVRip 600MB Download

..:: Movie Info::.
Dekh Kemon Lage (2017) Bengali Movie Download
Directed By: Abhijit Guha and Sudeshna Roy
Produced By: GreenTouch Entertainment
Creative Production: Nideas Creations & Productions
Executive Producer: Arijit Riju Dutta ( Greentouch Entertainment) & Srijoni Roy ( Nideas Creations & Productions)
Music Director: Jeet Gannguli
Director of Photography: Premendu Bikash Chaki
Script: Padmanabha Dasgupta
Editor: Sujay Dutta Ray
Art: Tanmoy Chakraborty
Prod Controller: Kanchan Bhattacharjee
Colorist: Debojyoti Ghosh
Promo: Gaurab Dutta
VFX: RGB Lab
Technology Partner: Edit Fx Studios
Line Producer: Sarathi Guha

.:: Download Link 600MB ::.

Uptocafe Download Link [High Speed]

HDUpload Download Link

9Xuload Download Link

Dekh Kemon Lage (2017) Bengali Movie – HDTV Rip – 850

Dekh Kemon Lage (2017) Bengali Movie – HDTV Rip – 850 MB – Mpeg

Image

Image

Image

Image

Image

Image

General
Format                                   : MPEG-PS
File size                                : 850 MiB
Duration                                 : 2 h 40 min
Overall bit rate mode                    : Variable

Video
ID                                       : 224 (0xE0)
Format                                   : MPEG Video
Format version                           : Version 2
Format profile                           : Main@Main
Format settings, BVOP                    : Yes
Format settings, Matrix                  : Custom
Format settings, GOP                     : M=3, N=18
Duration                                 : 2 h 40 min
Bit rate mode                            : Variable
Bit rate                                 : 636 kb/s
Width                                    : 352 pixels
Height                                   : 288 pixels
Display aspect ratio                     : 4:3
Frame rate                               : 25.000 FPS
Standard                                 : PAL
Color space                              : YUV
Chroma subsampling                       : 4:2:0
Bit depth                                : 8 bits
Scan type                                : Progressive
Stream size                              : 724 MiB (85%)

Audio
ID                                       : 192 (0xC0)
Format                                   : MPEG Audio
Format version                           : Version 1
Format profile                           : Layer 2
Duration                                 : 2 h 40 min
Bit rate mode                            : Constant
Bit rate                                 : 96.0 kb/s
Channel(s)                               : 2 channels
Sampling rate                            : 48.0 kHz
Compression mode                         : Lossy
Stream size                              : 110 MiB (13%)

Image

Image

Image

Image

Image

bdupload. Download Link
indishare Download Link
arabloads. Download Link
openload Download Link
9xupload Download Link
hdupload.net Download Link
uploads.to Download Link

Deal (2017) Bengali Audlt XXX Short Film Full HD *HOT*

Deal (2017) Bengali Audlt Short Film Full HD Download

File: files/www.BDmusicBoss.Net – Deal (2017) Bengali Audlt Short Film 720p HD (BDmusicBoss.Net).mp4
Size: 89272445 bytes (85.14 MiB), duration: 00:14:56, avg.bitrate: 797 kb/s
Audio: aac, 44100 Hz, stereo (und)
Video: h264, yuv420p, 1280×720, 24.00 fps(r) (und)

..::Download Link 720p HD 90MB File::..

Uptocafe Download Link

BDupload Download Link

HDupload Download Link

9xupload Download link

Yeti Obhijaan 2017 Bangali Movie Official Trailer HD

Yeti Obhijaan 2017 Bangali Movie Official Trailer HD

Movie Teaser Download Link 33 MB

HDuplad BDupload UptoCafe 9Xupload

My Son,s Best Friend Audlt Movie HDRip 280MB Download *HOT*

My Son’s Best Friend Hot Movie HDRip 280MB Download

Year: 2017
Quality: 480p, 720p
Language: English
Genre: Adult, Adult movie download
Cast: Cherie Deville, Jay Smooth, Julia Ann, Lea Lexis, Logan Long, Lucas Frost, Mike Quasar, ritney Amber, T Stone

View SceenShoot

..::Download Link 720p HD 290MB File::..

Uptocafe Download Link

BDupload Download Link

HDupload Download Link

9xupload Download link

18+ Sunny Leone Hot Action With (2017) HDRip 720p Download

..::File Informetion::..

File: files/Sunny Leone Hot Action With (2017) HDRip 720p HD (BDmusic90.Com).mkv
Size: 564899556 bytes (538.73 MiB), duration: 00:38:57, avg.bitrate: 1934 kb/s
Audio: aac, 44100 Hz, stereo (eng)
Video: h264, yuv420p, 1274×720, 25.00 fps(r) (eng)

View Screenshot

…::: Download Links Full Movies 530MB File:::…

Uptocafe Download Link

HDupload Download Link

9xupload Download Link