Dekh Kemon Lage (2017) Bengali Movie HDTVRip 600MB Download

..:: Movie Info::.
Dekh Kemon Lage (2017) Bengali Movie Download
Directed By: Abhijit Guha and Sudeshna Roy
Produced By: GreenTouch Entertainment
Creative Production: Nideas Creations & Productions
Executive Producer: Arijit Riju Dutta ( Greentouch Entertainment) & Srijoni Roy ( Nideas Creations & Productions)
Music Director: Jeet Gannguli
Director of Photography: Premendu Bikash Chaki
Script: Padmanabha Dasgupta
Editor: Sujay Dutta Ray
Art: Tanmoy Chakraborty
Prod Controller: Kanchan Bhattacharjee
Colorist: Debojyoti Ghosh
Promo: Gaurab Dutta
VFX: RGB Lab
Technology Partner: Edit Fx Studios
Line Producer: Sarathi Guha

.:: Download Link 600MB ::.

Uptocafe Download Link [High Speed]

HDUpload Download Link

9Xuload Download Link

Dekh Kemon Lage (2017) Bengali HDRip 350mb & 700mb

Dekh Kemon Lage (2017) Bengali Full Movie HDRip 700MB

Dekh Kemon Lage (2017) Bengali Movie
Directed By: Abhijit Guha and Sudeshna Roy
Produced By: GreenTouch Entertainment
Creative Production: Nideas Creations & Productions
Executive Producer: Arijit Riju Dutta ( Greentouch Entertainment) & Srijoni Roy ( Nideas Creations & Productions)
Music Director: Jeet Gannguli
Director of Photography: Premendu Bikash Chaki

 Download Link Full Movie 700 MB File

HDupload – BDupload – ClickUpload

 Download Link Full Movie 350 MB File

HDupload – BDupload – ClickUpload

Dekh Kemon Lage (2017) Bengali Full Movie HDRip 700MB

Dekh Kemon Lage (2017) Bengali Full Movie HDRip 700MB

Dekh Kemon Lage (2017) Bengali Movie
Directed By: Abhijit Guha and Sudeshna Roy
Produced By: GreenTouch Entertainment
Creative Production: Nideas Creations & Productions
Executive Producer: Arijit Riju Dutta ( Greentouch Entertainment) & Srijoni Roy ( Nideas Creations & Productions)
Music Director: Jeet Gannguli
Director of Photography: Premendu Bikash Chaki

Uptocafe Download Link [High Speed]

HDUpload Download Link

9Xuload Download Link

BDUploadmor Download

BDupload Download Link

Indishare Download Link

UptoBox Download Link

.:: Download Link 350MB::.

Uptocafe Download Link [High Speed]

HDUpload Download Link

9Xuload Download Link

BDUploadmor Download

BDupload Download Link

Indishare Download Link

UptoBox Download Link

Dekh Kemon Lage (2017) Bengali Full Movie HDRip 300MB *No Ads*

Dekh Kemon Lage (2017) Bengali Full Movie HDRip 700MB

Dekh Kemon Lage (2017) Bengali Movie
Directed By: Abhijit Guha and Sudeshna Roy
Produced By: GreenTouch Entertainment
Creative Production: Nideas Creations & Productions
Executive Producer: Arijit Riju Dutta ( Greentouch Entertainment) & Srijoni Roy ( Nideas Creations & Productions)
Music Director: Jeet Gannguli
Director of Photography: Premendu Bikash Chaki

 Download Link Full Movie 700 MB File

HDupload – BDupload – ClickUpload

 Download Link Full Movie 300 MB File

HDupload – BDupload – ClickUpload

Dekh Kemon Lage (2017) Bengali Movie – HDTV Rip – 850

Dekh Kemon Lage (2017) Bengali Movie – HDTV Rip – 850 MB – Mpeg

Image

Image

Image

Image

Image

Image

General
Format                                   : MPEG-PS
File size                                : 850 MiB
Duration                                 : 2 h 40 min
Overall bit rate mode                    : Variable

Video
ID                                       : 224 (0xE0)
Format                                   : MPEG Video
Format version                           : Version 2
Format profile                           : Main@Main
Format settings, BVOP                    : Yes
Format settings, Matrix                  : Custom
Format settings, GOP                     : M=3, N=18
Duration                                 : 2 h 40 min
Bit rate mode                            : Variable
Bit rate                                 : 636 kb/s
Width                                    : 352 pixels
Height                                   : 288 pixels
Display aspect ratio                     : 4:3
Frame rate                               : 25.000 FPS
Standard                                 : PAL
Color space                              : YUV
Chroma subsampling                       : 4:2:0
Bit depth                                : 8 bits
Scan type                                : Progressive
Stream size                              : 724 MiB (85%)

Audio
ID                                       : 192 (0xC0)
Format                                   : MPEG Audio
Format version                           : Version 1
Format profile                           : Layer 2
Duration                                 : 2 h 40 min
Bit rate mode                            : Constant
Bit rate                                 : 96.0 kb/s
Channel(s)                               : 2 channels
Sampling rate                            : 48.0 kHz
Compression mode                         : Lossy
Stream size                              : 110 MiB (13%)

Image

Image

Image

Image

Image

bdupload. Download Link
indishare Download Link
arabloads. Download Link
openload Download Link
9xupload Download Link
hdupload.net Download Link
uploads.to Download Link

Dekh Kemon Lage (2017) Bengali Full Movie HDRip 700MB *No Ads*

Dekh Kemon Lage (2017) Bengali Full Movie HDRip 700MB

Dekh Kemon Lage (2017) Bengali Movie
Directed By: Abhijit Guha and Sudeshna Roy
Produced By: GreenTouch Entertainment
Creative Production: Nideas Creations & Productions
Executive Producer: Arijit Riju Dutta ( Greentouch Entertainment) & Srijoni Roy ( Nideas Creations & Productions)
Music Director: Jeet Gannguli
Director of Photography: Premendu Bikash Chaki

 Download Link Full Movie 700 MB File

HDupload – BDupload – ClickUpload

 Download Link Full Movie 300 MB File

HDupload – BDupload – ClickUpload